<?xml version="1.0" standalone="no"?>
<!DOCTYPE svg PUBLIC "-//W3C//DTD SVG 1.1//EN" "http://www.w3.org/Graphics/SVG/1.1/DTD/svg11.dtd" >
<svg xmlns="http://www.w3.org/2000/svg">
<metadata>Generated by IcoMoon</metadata>
<defs>
<font id="icomoon" horiz-adv-x="1024">
<font-face units-per-em="1024" ascent="960" descent="-64" />
<missing-glyph horiz-adv-x="1024" />
<glyph unicode="&#x20;" horiz-adv-x="512" d="" />
<glyph unicode="&#xe900;" glyph-name="sex-male" d="M565.248 556.885v189.781l137.899-138.24c2.383-2.598 5.074-4.855 8.030-6.731l0.162-0.096c7.571-5.13 16.909-8.19 26.961-8.19 3.507 0 6.926 0.372 10.221 1.080l-0.318-0.057c13.076 2.557 24.025 10.155 30.95 20.643l0.111 0.179c5.394 7.775 8.618 17.412 8.618 27.801 0 14.575-6.344 27.668-16.42 36.669l-0.048 0.042-219.819 219.819c-1.695 2.13-3.484 4.027-5.418 5.765l-0.043 0.038c-8.628 7.35-19.905 11.822-32.226 11.822-1.633 0-3.248-0.079-4.841-0.232l0.203 0.016c-13.699-0.917-25.744-7.317-34.079-17.002l-0.054-0.064-216.405-216.405c-3.559-3.176-6.796-6.522-9.776-10.089l-0.122-0.151c-5.953-8.072-9.528-18.216-9.528-29.195 0-14.889 6.574-28.242 16.978-37.315l0.059-0.050c8.443-7.322 19.539-11.784 31.678-11.784 1.465 0 2.915 0.065 4.347 0.192l-0.185-0.013c13.664 0.478 25.785 6.705 34.082 16.323l0.051 0.061 136.533 136.533v-190.805c-137.566-25.119-240.475-144.041-240.475-286.998 0-144.662 105.377-264.711 243.558-287.575l1.695-0.232c14.016-2.329 30.205-3.692 46.701-3.754h0.062c160.99 0 291.499 130.508 291.499 291.499 0 142.407-102.118 260.963-237.121 286.436l-1.813 0.284zM671.744 156.843l-13.312-16.725-7.509-9.216c-34.834-35.13-83.115-56.879-136.476-56.879-47.528 0-91.026 17.254-124.572 45.84l0.27-0.224c-43.547 33.976-71.285 86.461-71.285 145.424 0 21.257 3.605 41.672 10.237 60.666l-0.392-1.29c20.237 73.614 82.804 128.246 159.267 136.462l0.818 0.071h51.883c94.474-13.866 166.186-94.355 166.186-191.594 0-41.636-13.148-80.202-35.519-111.771l0.405 0.602z" />
<glyph unicode="&#xe901;" glyph-name="sort-decrease" d="M482.987 159.915h115.371c15.835 0 28.672-12.837 28.672-28.672v-58.027c0-15.835-12.837-28.672-28.672-28.672h-115.371c-15.835 0-28.672 12.837-28.672 28.672v58.027c0 15.835 12.837 28.672 28.672 28.672zM244.395 842.923c-5.317 5.071-12.534 8.192-20.48 8.192s-15.163-3.121-20.492-8.203l0.012 0.011-143.701-173.056c-5.035-5.211-8.137-12.317-8.137-20.148 0-15.764 12.572-28.592 28.237-29.003l0.038-0.001h86.357v-548.181c0-0.001 0-0.001 0-0.002 0-15.835 12.837-28.672 28.672-28.672 0.12 0 0.24 0.001 0.36 0.002h57.326c0.101-0.001 0.221-0.002 0.341-0.002 15.835 0 28.672 12.837 28.672 28.672 0 0.001 0 0.001 0 0.002v0 546.133h86.357c0.001 0 0.001 0 0.002 0 15.835 0 28.672 12.837 28.672 28.672 0 0.12-0.001 0.24-0.002 0.36v-0.018c-0.093 7.822-3.197 14.902-8.203 20.15l0.011-0.012zM482.987 620.715h345.771c15.835 0 28.672-12.837 28.672-28.672v-58.027c0-15.835-12.837-28.672-28.672-28.672h-345.771c-15.835 0-28.672 12.837-28.672 28.672v58.027c0 15.835 12.837 28.672 28.672 28.672zM482.987 390.315h230.741c15.835 0 28.672-12.837 28.672-28.672v-58.027c0-15.835-12.837-28.672-28.672-28.672h-230.741c-15.835 0-28.672 12.837-28.672 28.672v58.027c0 15.835 12.837 28.672 28.672 28.672zM482.987 851.115h461.141c15.835 0 28.672-12.837 28.672-28.672v-58.027c0-15.835-12.837-28.672-28.672-28.672h-461.141c-15.835 0-28.672 12.837-28.672 28.672v58.027c0 15.835 12.837 28.672 28.672 28.672z" />
<glyph unicode="&#xe902;" glyph-name="sort-add" d="M482.987 851.115h115.371c15.835 0 28.672-12.837 28.672-28.672v-58.027c0-15.835-12.837-28.672-28.672-28.672h-115.371c-15.835 0-28.672 12.837-28.672 28.672v58.027c0 15.835 12.837 28.672 28.672 28.672zM482.987 620.715h230.741c15.835 0 28.672-12.837 28.672-28.672v-58.027c0-15.835-12.837-28.672-28.672-28.672h-230.741c-15.835 0-28.672 12.837-28.672 28.672v58.027c0 15.835 12.837 28.672 28.672 28.672zM482.987 159.915h461.141c15.835 0 28.672-12.837 28.672-28.672v-58.027c0-15.835-12.837-28.672-28.672-28.672h-461.141c-15.835 0-28.672 12.837-28.672 28.672v58.027c0 15.835 12.837 28.672 28.672 28.672zM482.987 390.315h345.771c15.835 0 28.672-12.837 28.672-28.672v-58.027c0-15.835-12.837-28.672-28.672-28.672h-345.771c-15.835 0-28.672 12.837-28.672 28.672v58.027c0 15.835 12.837 28.672 28.672 28.672zM367.957 275.285h-86.357v548.181c0 0.001 0 0.001 0 0.002 0 15.835-12.837 28.672-28.672 28.672-0.12 0-0.24-0.001-0.36-0.002h-57.326c-0.101 0.001-0.221 0.002-0.341 0.002-15.835 0-28.672-12.837-28.672-28.672 0-0.001 0-0.001 0-0.002v0-546.133h-86.357c-15.876-0.193-28.672-13.108-28.672-29.011 0-0.001 0-0.001 0-0.002v0c0-0.005 0-0.011 0-0.017 0-7.894 3.268-15.026 8.526-20.114l0.008-0.007 145.067-175.104c5.264-5.050 12.423-8.16 20.309-8.16s15.045 3.11 20.319 8.169l-0.010-0.010 144.043 173.056c5.21 5.192 8.433 12.374 8.433 20.309s-3.223 15.117-8.432 20.309l-0.001 0.001c-5.098 5.284-12.242 8.566-20.153 8.566-0.475 0-0.948-0.012-1.417-0.035l0.066 0.003z" />
<glyph unicode="&#xe903;" glyph-name="expand" d="M769.024 444.928c-28.277 0-51.2-22.923-51.2-51.2v0-266.581c-0.191-20.659-16.888-37.355-37.528-37.547h-489.149c-20.736 0-37.547 16.81-37.547 37.547v0 489.131c0.571 20.291 17.156 36.523 37.533 36.523 0.005 0 0.010 0 0.015 0h266.581c28.277 0 51.2 22.923 51.2 51.2s-22.923 51.2-51.2 51.2v0h-266.581c-77.212-0.194-139.753-62.734-139.947-139.928v-488.126c0.194-77.212 62.734-139.753 139.928-139.947h489.15c76.772 0.771 138.733 63.091 138.923 139.928v266.599c0 0.003 0 0.007 0 0.010 0 27.917-22.343 50.615-50.122 51.189l-0.054 0.001zM969.045 876.373v0c-5.53 12.604-15.385 22.459-27.646 27.855l-0.344 0.135c-5.708 2.654-12.373 4.272-19.397 4.436l-0.059 0.001h-266.581c-28.277 0-51.2-22.923-51.2-51.2s22.923-51.2 51.2-51.2v0h143.019l-401.408-401.408c-9.335-9.225-15.116-22.028-15.116-36.181s5.781-26.956 15.111-36.176l0.005-0.005c9.263-9.252 22.054-14.974 36.181-14.974s26.918 5.722 36.182 14.974l401.407 401.407v-143.019c0-28.277 22.923-51.2 51.2-51.2s51.2 22.923 51.2 51.2v0 266.581c-0.029 6.778-1.406 13.226-3.877 19.101l0.122-0.328z" />
<glyph unicode="&#xe904;" glyph-name="sex-female" d="M793.941 584.533c3.545 16.844 5.574 36.198 5.574 56.026 0 157.031-127.299 284.331-284.331 284.331-142.597 0-260.676-104.971-281.179-241.856l-0.192-1.562c-2.833-14.767-4.453-31.752-4.453-49.114 0-53.505 15.388-103.416 41.981-145.548l-0.664 1.126c41.637-71.349 112.064-122.023 194.943-136.296l1.665-0.237v-74.069h-149.845c-0.607 0.027-1.319 0.043-2.035 0.043-26.769 0-48.469-21.7-48.469-48.469 0-8.664 2.273-16.798 6.256-23.836l-0.126 0.241c8.178-14.971 23.811-24.956 41.777-24.956 0.673 0 1.343 0.014 2.009 0.042l-0.095-0.003h153.941v-57.344c0-32.085 0-64.512 0-96.597 0-0.060 0-0.132 0-0.203 0-13.24 5.346-25.231 13.997-33.932l-0.002 0.002c8.546-9.046 20.625-14.677 34.019-14.677 0.040 0 0.080 0 0.121 0h-0.006c0.001 0 0.003 0 0.005 0 26.529 0 48.080 21.313 48.464 47.75v0.036c0 22.869 0 45.739 0 68.267v87.381h153.259c0.924-0.164 1.987-0.258 3.072-0.258s2.148 0.094 3.182 0.274l-0.11-0.016c25.517 1.545 45.626 22.617 45.626 48.386 0 14.226-6.129 27.021-15.89 35.888l-0.040 0.036c-8.301 7.658-19.435 12.353-31.666 12.353-0.868 0-1.73-0.024-2.587-0.070l0.119 0.005c-36.523 0-72.704 0-109.227 0h-44.373v75.776c115.769 23.213 205.016 114.415 225.036 229.387l0.244 1.695zM704.171 635.733c0.001-0.273 0.002-0.597 0.002-0.92 0-51.896-21.29-98.82-55.611-132.513l-0.028-0.028c-34.195-34.070-81.368-55.135-133.461-55.135s-99.267 21.064-133.467 55.14l0.006-0.006c-34.070 34.195-55.135 81.368-55.135 133.461s21.064 99.267 55.14 133.467l-0.006-0.006c33.592 33.54 79.971 54.282 131.195 54.282 0.677 0 1.353-0.004 2.028-0.011l-0.103 0.001c0.001 0 0.002 0 0.003 0 103.888 0 188.173-83.927 188.754-187.678v-0.055z" />
<glyph unicode="&#xe905;" glyph-name="add" d="M944.305 527.805h-352.501v352.501c-0.083 44.019-35.777 79.674-79.803 79.695h-0.002c-43.994-0.083-79.632-35.735-79.695-79.725v-352.47h-352.537c-44.055 0-79.768-35.713-79.768-79.768s35.713-79.768 79.768-79.768v0h352.501v-352.574c0-44.055 35.713-79.768 79.768-79.768s79.768 35.713 79.768 79.768v0 352.574h352.501c44.055 0 79.768 35.713 79.768 79.768s-35.713 79.768-79.768 79.768v0z" />
<glyph unicode="&#xe906;" glyph-name="address" horiz-adv-x="717" d="M358.4 960c-0.076 0-0.166 0-0.256 0-197.797 0-358.144-160.347-358.144-358.144 0-0.090 0-0.18 0-0.27v0.014c0-268.8 358.4-665.6 358.4-665.6s358.4 396.8 358.4 665.6c0 0.076 0 0.166 0 0.256 0 197.797-160.347 358.144-358.144 358.144-0.090 0-0.18 0-0.27 0h0.014zM358.4 473.6c-70.692 0-128 57.308-128 128s57.308 128 128 128c70.692 0 128-57.308 128-128v0c0-70.692-57.308-128-128-128v0z" />
<glyph unicode="&#xe907;" glyph-name="agent" horiz-adv-x="896" d="M447.993 448.019c141.38 0 255.991 114.611 255.991 255.991s-114.611 255.991-255.991 255.991c-141.38 0-255.991-114.611-255.991-255.991v0c0-141.38 114.611-255.991 255.991-255.991v0zM639.585 382.836l-95.609-382.81-63.988 272.006 63.988 111.998h-191.965l63.988-111.998-63.988-272.006-95.609 382.773c-142.815-6.542-256.155-123.796-256.401-267.577v-179.221h895.986v179.197c-0.246 143.806-113.586 261.059-255.814 267.58l-0.587 0.021z" />
<glyph unicode="&#xe908;" glyph-name="arrow" d="M889.022 952.946l-831.526-383.772c-34.358-15.411-57.857-49.317-57.857-88.711 0-53.291 43.002-96.539 96.2-96.936h351.687v-351.801c0.219-53.372 43.536-96.553 96.938-96.553 39.559 0 73.583 23.696 88.654 57.668l0.245 0.618 383.621 831.564c3.826 10.169 6.041 21.922 6.041 34.192 0 55.109-44.674 99.783-99.783 99.783-12.281 0-24.044-2.219-34.909-6.277l0.689 0.226z" />
<glyph unicode="&#xe909;" glyph-name="avatar" horiz-adv-x="894" d="M448.963 456.819c138.95 0 251.59 112.641 251.59 251.59s-112.641 251.59-251.59 251.59v0c-138.95 0-251.59-112.641-251.59-251.59s112.641-251.59 251.59-251.59v0zM448.963 840.512v0c72.958 0 132.103-59.144 132.103-132.103s-59.144-132.103-132.103-132.103c-72.958 0-132.103 59.144-132.103 132.103 0 0.013 0 0.026 0 0.039v-0.002c0 72.938 59.128 132.065 132.065 132.065 0.013 0 0.026 0 0.039 0h-0.002zM448.963 393.931c-167.938 0-448.963-50.013-448.963-217.355v-240.576h893.721v240.576c0 167.305-276.82 217.355-444.758 217.355zM774.233 55.525h-654.931v121.051c0 40.263 142.671 97.83 329.475 97.83v0c186.804 0 325.27-57.567 325.27-97.83z" />
<glyph unicode="&#xe90a;" glyph-name="bell" horiz-adv-x="932" d="M908.486 267.183c-1.1 0.834-112.139 84.872-112.139 362.886 0 182.216-147.715 329.931-329.931 329.931s-329.931-147.715-329.931-329.931v0c0-278.014-111.039-362.052-111.191-362.242-15.359-10.347-25.326-27.674-25.326-47.328 0-31.414 25.465-56.881 56.878-56.885h819.14c25.031 0.194 46.179 16.601 53.474 39.229l0.112 0.401c1.696 5.184 2.675 11.15 2.675 17.344 0 19.089-9.291 36.008-23.598 46.482l-0.162 0.113zM174.901 277.384c47.923 94.131 76 205.282 76 322.99 0 10.443-0.221 20.835-0.659 31.17l0.050-1.475c0 119.383 96.779 216.162 216.162 216.162s216.162-96.779 216.162-216.162v0c-0.387-8.856-0.608-19.244-0.608-29.684 0-117.708 28.062-228.862 77.862-327.136l-1.9 4.135zM573.853 87.541c-8.181 4.825-18.026 7.675-28.536 7.675-20.904 0-39.175-11.276-49.061-28.077l-0.145-0.266c-6.013-10.266-16.989-17.051-29.55-17.051-6.311 0-12.222 1.713-17.293 4.699l0.16-0.087c-5.181 3.025-9.376 7.22-12.314 12.241l-0.086 0.16c-10.022 17.142-28.338 28.474-49.3 28.474-31.434 0-56.916-25.482-56.916-56.916 0-10.472 2.828-20.283 7.762-28.711l-0.145 0.269c26.074-44.41 73.596-73.753 127.972-73.753s101.897 29.344 127.594 73.059l0.377 0.694c4.808 8.17 7.648 17.998 7.648 28.489 0 20.831-11.197 39.047-27.901 48.958l-0.263 0.144z" />
<glyph unicode="&#xe90b;" glyph-name="calender" horiz-adv-x="922" d="M307.2 499.2h-102.4v-102.4h102.4zM512 499.2h-102.4v-102.4h102.4zM716.8 499.2h-102.4v-102.4h102.4zM819.2 857.6h-51.2v102.4h-102.4v-102.4h-409.6v102.4h-102.4v-102.4h-51.2c-56.277-0.024-101.889-45.651-101.889-101.931 0-0.165 0-0.33 0.001-0.495v0.025l-0.512-716.8c0-56.554 45.846-102.4 102.4-102.4v0h716.8c56.486 0.169 102.231 45.914 102.4 102.384v716.816c-0.169 56.486-45.914 102.231-102.384 102.4h-0.016zM819.2 38.4h-716.8v563.2h716.8z" />
<glyph unicode="&#xe90c;" glyph-name="checkbox-1" d="M910.222 960h-796.444c-62.838 0-113.778-50.94-113.778-113.778v0-796.444c0-62.838 50.94-113.778 113.778-113.778v0h796.444c62.838 0 113.778 50.94 113.778 113.778v0 796.444c0 62.838-50.94 113.778-113.778 113.778v0zM398.222 163.556l-284.444 284.444 80.213 80.213 204.231-203.662 431.787 431.787 80.213-80.782z" />
<glyph unicode="&#xe90d;" glyph-name="checkbox" d="M910.222 846.222v-796.444h-796.444v796.444h796.444zM910.222 960h-796.444c-62.76-0.193-113.584-51.018-113.778-113.759v-796.463c0.193-62.76 51.018-113.584 113.759-113.778h796.463c62.76 0.193 113.584 51.018 113.778 113.759v796.463c-0.193 62.76-51.018 113.584-113.759 113.778h-0.019z" />
<glyph unicode="&#xe90e;" glyph-name="circle-left" d="M512-64c-282.77 0-512 229.23-512 512s229.23 512 512 512c282.77 0 512-229.23 512-512v0c0-282.77-229.23-512-512-512v0zM276.821 412.928l279.723-279.723c8.937-8.992 21.312-14.557 34.987-14.557s26.050 5.565 34.984 14.554l35.117 35.117c8.992 8.937 14.557 21.312 14.557 34.987s-5.565 26.050-14.554 34.984l-209.751 209.751 209.749 209.749c8.992 8.937 14.557 21.312 14.557 34.987s-5.565 26.050-14.554 34.984l-35.117 35.117c-8.937 8.992-21.312 14.557-34.987 14.557s-26.050-5.565-34.984-14.554l-279.725-279.767c-8.993-8.976-14.557-21.385-14.557-35.093s5.564-26.118 14.556-35.093l0.001-0.001z" />
<glyph unicode="&#xe90f;" glyph-name="circle-right" d="M512-64c282.77 0 512 229.23 512 512s-229.23 512-512 512c-282.77 0-512-229.23-512-512v0c0-282.77 229.23-512 512-512v0zM747.136 412.885l-279.723-279.723c-8.937-8.992-21.312-14.557-34.987-14.557s-26.050 5.565-34.984 14.554l-35.117 35.117c-8.992 8.937-14.557 21.312-14.557 34.987s5.565 26.050 14.554 34.984l209.751 209.751-209.792 209.792c-8.992 8.937-14.557 21.312-14.557 34.987s5.565 26.050 14.554 34.984l35.117 35.117c8.937 8.992 21.312 14.557 34.987 14.557s26.050-5.565 34.984-14.554l279.725-279.725c9.019-8.98 14.6-21.406 14.6-35.136 0-13.709-5.564-26.118-14.556-35.093l-0.001-0.001z" />
<glyph unicode="&#xe910;" glyph-name="close" d="M843.123 929.004l-331.098-331.098-331.098 331.098c-19.185 19.146-45.668 30.985-74.916 30.985s-55.731-11.839-74.918-30.987l0.002 0.002c-19.117-19.18-30.937-45.643-30.937-74.868s11.82-55.687 30.94-74.87l331.047-331.095-331.050-331.244c-19.191-19.173-31.063-45.67-31.063-74.94 0-58.504 47.427-105.93 105.93-105.93 29.234 0 55.702 11.842 74.868 30.991l331.097 331.097 331.196-331.147c19.046-18.46 45.049-29.839 73.71-29.839 58.521 0 105.961 47.44 105.961 105.961 0 28.661-11.379 54.663-29.865 73.737l0.027-0.028-331.196 331.196 331.098 331.098c18.46 19.046 29.839 45.049 29.839 73.71 0 58.521-47.44 105.961-105.961 105.961-28.661 0-54.663-11.379-73.737-29.865l0.028 0.027z" />
<glyph unicode="&#xe911;" glyph-name="comment" d="M895.851 960h-767.872c-70.681 0-127.979-57.298-127.979-127.979v0-575.904c0-70.681 57.298-127.979 127.979-127.979v0h191.968v-167.993c0-0.025 0-0.056 0-0.086 0-13.288 10.772-24.060 24.060-24.060 5.399 0 10.382 1.778 14.397 4.781l-0.063-0.045 249.558 187.403h287.952c70.681 0 127.979 57.298 127.979 127.979v0 575.904c0 70.681-57.298 127.979-127.979 127.979v0zM604.699 384.096h-371.821v127.979h371.821zM791.42 663.303h-558.84v127.979h558.84z" />
<glyph unicode="&#xe912;" glyph-name="company" horiz-adv-x="970" d="M646.741 474.965v323.371l-161.707 161.664-161.664-161.664v-107.819h-323.371v-754.517h970.112v538.965zM215.595 43.776h-107.819v107.819h107.819zM215.595 259.371h-107.819v107.776h107.819zM215.595 474.965h-107.819v107.776h107.819zM538.965 43.819h-107.819v107.776h107.776zM538.965 259.413h-107.819v107.733h107.776zM538.965 475.008h-107.819v107.733h107.776zM538.965 690.603h-107.819v107.733h107.776zM862.336 43.861h-107.819v107.733h107.776zM862.336 259.456h-107.819v107.691h107.776z" />
<glyph unicode="&#xe913;" glyph-name="decrease" horiz-adv-x="1059" d="M947.023 536.276h-834.737c-42.513 0-76.977-34.464-76.977-76.977s34.464-76.977 76.977-76.977h834.737c42.513 0 76.977 34.464 76.977 76.977s-34.464 76.977-76.977 76.977v0z" />
<glyph unicode="&#xe914;" glyph-name="delet" horiz-adv-x="783" d="M587.199 904.076l-55.924 55.924h-279.618l-55.924-55.924h-195.733v-111.847h782.932v111.847zM33.107 89.492c1.405-85.070 70.697-153.493 155.97-153.493 0.217 0 0.434 0 0.65 0.001h403.362c0.182-0.001 0.398-0.001 0.614-0.001 85.338 0 154.671 68.528 155.971 153.557l0.001 0.122v647.895h-716.569zM144.954 627.888h493.023v-538.023c-0.295-24.483-20.211-44.217-44.736-44.217-0.001 0-0.002 0-0.003 0h-403.21c-0.101-0.001-0.22-0.001-0.34-0.001-24.499 0-44.399 19.692-44.735 44.112v0.032zM288.939 125.097c30.886 0 55.924 25.038 55.924 55.924v0 316.901c0 30.886-25.038 55.924-55.924 55.924s-55.924-25.038-55.924-55.924v0-316.901c0-30.886 25.038-55.924 55.924-55.924v0zM493.993 125.097c30.886 0 55.924 25.038 55.924 55.924v0 316.901c0 30.886-25.038 55.924-55.924 55.924s-55.924-25.038-55.924-55.924v0-316.901c0-30.886 25.038-55.924 55.924-55.924v0z" />
<glyph unicode="&#xe915;" glyph-name="down" d="M563.115 105.771l407.851 408.107c13.086 12.984 21.186 30.975 21.186 50.858 0 19.714-7.963 37.568-20.848 50.521l-68.136 68.136c-12.998 13.055-30.985 21.133-50.859 21.133-19.725 0-37.592-7.958-50.564-20.838l-289.532-289.617-289.195 289.195c-13.008 13.118-31.038 21.24-50.965 21.24-19.778 0-37.688-8.001-50.669-20.943l-0.297-0.297-67.968-67.499c-13.075-12.989-21.168-30.978-21.168-50.859 0-19.71 7.956-37.563 20.831-50.521l408.231-408.316c13.040-13.276 31.18-21.503 51.243-21.503 19.596 0 37.358 7.849 50.315 20.575l-0.011-0.010z" />
<glyph unicode="&#xe916;" glyph-name="edit" d="M864 960c88.366 0 160-71.634 160-160 0-36.2-12.022-69.593-32.292-96.402l0.292 0.402-64-64-224 224 64 64c26.324 19.976 59.637 32 95.758 32 0.085 0 0.17 0 0.255 0h-0.013zM64 224l-64-288 288 64 592.171 592-224.171 224.128zM715.563 596.437l-448-448-55.168 55.125 448 448z" />
<glyph unicode="&#xe917;" glyph-name="eye-1" horiz-adv-x="1142" d="M1123.235 38.654l-217.634 208.847c5.132-1.805 11.050-2.848 17.211-2.848 15.851 0 30.089 6.902 39.875 17.864l0.046 0.052c37.481 38.161 71.036 80.412 99.866 125.951l1.835 3.103c5.666 8.976 9.029 19.899 9.029 31.606 0 11.056-2.999 21.412-8.227 30.299l0.153-0.28c-7.952 13.359-194.813 327.802-528.499 327.802h-1.312c-35.996-0.005-71.127-3.696-105.040-10.716l3.34 0.578c-18.092-3.787-32.895-15.391-40.954-31.036l-0.156-0.333-212.306 203.798c-10.7 10.287-25.264 16.622-41.308 16.622-32.938 0-59.64-26.702-59.64-59.64 0-16.894 7.024-32.148 18.312-42.999l0.020-0.019 162.768-156.208c-5.287-1.648-9.884-3.809-14.111-6.501l0.235 0.14c-95.97-62.868-175.328-142.911-235.543-236.445l-1.89-3.135c-5.835-9.056-9.303-20.115-9.303-31.985 0-11.035 2.997-21.371 8.222-30.236l-0.152 0.279c7.952-13.359 194.813-327.802 529.175-327.802 107.604 0.9 207.542 32.95 291.456 87.555l-2.1-1.281c1.312 0.835 2.385 1.908 3.618 2.863l210.398-201.929c10.7-10.287 25.264-16.622 41.308-16.622 32.938 0 59.64 26.702 59.64 59.64 0 16.894-7.024 32.148-18.312 42.999l-0.020 0.019zM536.729 661.777c210.716 0 354.679-168.573 405.529-238.546-20.464-28.603-41.631-53.756-64.584-77.15l0.097 0.1c-10.193-10.583-16.471-24.997-16.471-40.878 0-6.315 0.993-12.399 2.831-18.103l-0.116 0.417-385.213 369.747c17.213 2.809 37.053 4.414 57.267 4.414 0.232 0 0.464 0 0.696-0.001h-0.036zM480.591 454.242c6.937 5.309 12.58 11.943 16.621 19.556l0.156 0.323 89.972-86.354c-14.804-12.070-33.904-19.382-54.711-19.382-7.266 0-14.323 0.892-21.069 2.571l0.598-0.126c-21.583 3.776-39.081 18.284-47.003 37.713l-0.149 0.414c-0.942 3.344-1.484 7.185-1.484 11.153 0 13.911 6.658 26.266 16.961 34.054l0.107 0.078zM536.729 184.685c-210.716 0-354.4 168.215-405.211 238.546 49.32 68.027 109.037 125.034 177.432 169.904l2.551 1.571c11.947 7.883 20.761 19.68 24.668 33.535l0.101 0.418 78.482-75.301c-2.135-1.142-3.89-2.209-5.584-3.359l0.217 0.139c-39.593-30.204-64.883-77.409-64.883-130.521 0-16.497 2.44-32.424 6.979-47.441l-0.301 1.159c21.213-61.143 72.589-106.713 135.851-119.32l1.154-0.192c13.578-3.209 29.168-5.048 45.187-5.048 51.658 0 98.848 19.131 134.872 50.694l-0.235-0.202c1.923 1.788 3.692 3.67 5.327 5.665l0.080 0.1 67.389-64.686c-58.645-34.055-128.851-54.577-203.762-55.657l-0.314-0.004z" />
<glyph unicode="&#xe918;" glyph-name="eye" horiz-adv-x="1352" d="M1343.806 481.543c-9.762 19.575-244.11 478.457-667.948 478.457s-658.136-458.883-667.948-478.457c-4.994-9.78-7.92-21.332-7.92-33.568s2.926-23.787 8.117-33.994l-0.197 0.427c10.013-19.575 244.11-478.407 667.948-478.407s658.186 458.832 667.948 478.407c4.994 9.78 7.92 21.332 7.92 33.568s-2.926 23.787-8.117 33.994l0.197-0.427zM675.858 86.040c-272.446 0-457.030 266.138-514.553 361.809 57.523 95.671 242.107 361.809 514.553 361.809s457.13-266.288 514.553-361.809c-57.523-95.521-242.157-361.659-514.553-361.659zM675.858 748.381c-165.896 0-300.381-134.485-300.381-300.381s134.485-300.381 300.381-300.381c165.896 0 300.381 134.485 300.381 300.381v0c-0.199 165.816-134.565 300.182-300.362 300.381h-0.020zM675.858 297.809c-82.948 0-150.191 67.243-150.191 150.191s67.243 150.191 150.191 150.191c82.948 0 150.191-67.243 150.191-150.191v0c0-82.948-67.243-150.191-150.191-150.191v0z" />
<glyph unicode="&#xe919;" glyph-name="flag" horiz-adv-x="1008" d="M470.315 580.139v-136.192c52.181-11.819 98.603-31.189 147.2-44.587v136.405c-52.011 11.605-98.773 30.976-147.2 44.416zM916.907 826.112c-67.939-35.792-147.729-58.874-232.376-63.923l-1.608-0.077c-107.008 0.213-195.584 69.76-330.368 69.76-0.457 0.002-0.998 0.003-1.539 0.003-48.265 0-94.476-8.794-137.118-24.867l2.678 0.885c4.705 11.905 7.433 25.695 7.433 40.122 0 61.856-50.144 112-112 112s-112-50.144-112-112c0-37.882 18.807-71.371 47.593-91.64l0.355-0.237v-772.267c0-0.038 0-0.083 0-0.128 0-26.439 21.433-47.872 47.872-47.872 0.045 0 0.090 0 0.135 0h31.993c0.038 0 0.083 0 0.128 0 26.439 0 47.872 21.433 47.872 47.872 0 0.045 0 0.090 0 0.135v-0.007 188.928c64.268 28.012 139.144 44.31 217.827 44.31 3.851 0 7.693-0.039 11.525-0.117l-0.573 0.009c107.179 0 195.584-69.589 330.368-69.589 92.324 0.765 177.356 31.352 246.099 82.581l-1.107-0.789c16.771 11.705 27.605 30.909 27.605 52.644 0 0.047 0 0.094 0 0.141v-0.007 486.144c-0.078 35.287-28.702 63.863-64 63.863-9.72 0-18.935-2.167-27.186-6.044l0.391 0.165zM323.157 308.992c-54.473-5.68-104.346-17.389-151.58-34.589l4.38 1.394v140.8c42.966 16.959 92.83 29.258 144.754 34.612l2.446 0.204zM911.957 577.792c-42.344-20.263-91.614-36.787-143.125-47.106l-4.075-0.681v-141.867c55.26 7.286 105.051 25.69 148.773 52.924l-1.573-0.913v-140.8c-41.573-28.653-91.64-48.031-145.739-54.055l-1.461-0.132v142.976c-14.605-2.234-31.455-3.51-48.603-3.51-35.177 0-69.1 5.37-100.994 15.334l2.396-0.645v-134.912c-39.685 15.094-88.92 29.775-139.395 41.183l-7.805 1.483v136.875c-28.906 6.694-62.098 10.532-96.186 10.532-17.976 0-35.702-1.067-53.12-3.141l2.106 0.204v140.032c-55.565-9.583-104.997-24.104-151.88-43.532l4.68 1.718v140.8c42.614 19.83 92.097 35.166 143.91 43.55l3.29 0.439v-142.976c14.417 2.165 31.054 3.401 47.98 3.401 35.4 0 69.537-5.408 101.63-15.442l-2.41 0.649v134.741c39.858-15.224 89.098-29.908 139.605-41.235l7.595-1.431v-136.704c26.239-6.45 56.363-10.149 87.35-10.149 21.13 0 41.859 1.72 62.054 5.028l-2.204-0.298v143.872c55.763 10.757 105.071 26.328 151.746 46.79l-4.546-1.777z" />
<glyph unicode="&#xe91a;" glyph-name="information" d="M460.771 601.604h102.293v102.251h-102.293zM511.917 38.251c-0.012 0-0.027 0-0.041 0-226.23 0-409.625 183.395-409.625 409.625s183.395 409.625 409.625 409.625c226.215 0 409.601-183.372 409.625-409.581v-0.002c0-226.23-183.395-409.625-409.625-409.625v0zM511.876 960.207c-282.717-0.071-511.876-229.274-511.876-512 0-282.77 229.23-512 512-512 282.697 0 511.882 229.113 512 511.782v0.011c0 282.77-229.23 512-512 512v0zM460.854 191.979h102.21v307.25h-102.21z" />
<glyph unicode="&#xe91b;" glyph-name="left" horiz-adv-x="661" d="M22.52 393.406l435.159-434.886c13.85-13.942 33.032-22.572 54.23-22.572s40.38 8.63 54.226 22.567l72.295 72.295c13.931 13.855 22.553 33.035 22.553 54.23s-8.622 40.375-22.549 54.227l-308.504 308.413 308.365 308.365c13.931 13.855 22.553 33.035 22.553 54.23s-8.622 40.375-22.549 54.227l-0.003 0.003-71.973 72.792c-13.85 13.942-33.032 22.572-54.23 22.572s-40.38-8.63-54.226-22.567l-435.027-434.936c-14.154-13.904-22.927-33.246-22.927-54.637 0-21.234 8.643-40.449 22.604-54.319l0.004-0.004z" />
<glyph unicode="&#xe91c;" glyph-name="phone" horiz-adv-x="652" d="M558.549 959.531l-465.451 0.469c-51.358-0.145-92.954-41.74-93.099-93.085v-837.817c0.145-51.358 41.74-92.954 93.085-93.099h465.465c51.358 0.145 92.954 41.74 93.099 93.085v837.817c-0.194 51.199-41.744 92.629-92.97 92.629-0.045 0-0.090 0-0.136 0h0.007zM558.549 122.197h-465.451v651.605h465.451z" />
<glyph unicode="&#xe91d;" glyph-name="puzzle" d="M384 960c-0.789 0.017-1.719 0.027-2.651 0.027-34.738 0-66.285-13.665-89.558-35.914l0.049 0.046c-22.202-23.224-35.867-54.77-35.867-89.509 0-0.932 0.010-1.862 0.029-2.789l-0.002 0.138c5.836-34.821 18.412-65.879 36.393-93.049l-0.553 0.889c2.672-8.237 4.213-17.715 4.213-27.553 0-2.918-0.136-5.803-0.401-8.652l0.027 0.365h-295.68v-768h295.68c0.053 1.37 0.084 2.978 0.084 4.594 0 11.101-1.431 21.868-4.119 32.126l0.196-0.88c-17.428 26.281-30.005 57.34-35.644 90.756l-0.196 1.404c-0.017 0.789-0.027 1.719-0.027 2.651 0 34.738 13.665 66.285 35.914 89.558l-0.046-0.049c23.224 22.202 54.77 35.867 89.509 35.867 0.932 0 1.862-0.010 2.789-0.029l-0.138 0.002c0.789 0.017 1.719 0.027 2.651 0.027 34.738 0 66.285-13.665 89.558-35.914l-0.049 0.046c22.202-23.224 35.867-54.77 35.867-89.509 0-0.932-0.010-1.862-0.029-2.789l0.002 0.138c-5.836-34.821-18.412-65.879-36.393-93.049l0.553 0.889c-2.672-8.237-4.213-17.715-4.213-27.553 0-2.918 0.136-5.803 0.401-8.652l-0.027 0.365h295.68v295.68c1.37 0.053 2.978 0.084 4.594 0.084 11.101 0 21.868-1.431 32.126-4.119l-0.88 0.196c26.281-17.428 57.34-30.005 90.756-35.644l1.404-0.196c70.692 0 128 57.308 128 128s-57.308 128-128 128v0c-34.821-5.836-65.879-18.412-93.049-36.393l0.889 0.553c-8.237-2.672-17.715-4.213-27.553-4.213-2.918 0-5.803 0.136-8.652 0.401l0.365-0.027v295.68h-295.68c-0.053 1.37-0.084 2.978-0.084 4.594 0 11.101 1.431 21.868 4.119 32.126l-0.196-0.88c17.428 26.281 30.005 57.34 35.644 90.756l0.196 1.404c0.017 0.789 0.027 1.719 0.027 2.651 0 34.738-13.665 66.285-35.914 89.558l0.046-0.049c-23.224 22.202-54.77 35.867-89.509 35.867-0.932 0-1.862-0.010-2.789-0.029l0.138 0.002z" />
<glyph unicode="&#xe91e;" glyph-name="right" horiz-adv-x="661" d="M638.368 393.381l-435.042-434.86c-13.855-13.932-33.037-22.554-54.232-22.554s-40.377 8.622-54.229 22.55l-72.298 72.298c-13.932 13.855-22.554 33.037-22.554 54.232s8.622 40.377 22.55 54.229l308.381 308.381-308.378 308.378c-13.932 13.855-22.554 33.037-22.554 54.232s8.622 40.377 22.55 54.229l0.003 0.003 71.976 72.795c13.855 13.932 33.037 22.554 54.232 22.554s40.377-8.622 54.229-22.55l435.045-434.726c14.1-13.896 22.836-33.203 22.836-54.549 0-21.189-8.607-40.368-22.515-54.232l-0.002-0.002z" />
<glyph unicode="&#xe91f;" glyph-name="school" horiz-adv-x="1252" d="M227.579 380.884v-227.579l398.211-217.305 398.211 217.305v227.579l-398.211-217.358zM625.789 960l-625.789-341.316 625.789-341.316 512 279.311v-393.1h113.789v455.105z" />
<glyph unicode="&#xe920;" glyph-name="search" d="M1009.922 74.686l-199.391 199.391c-8.672 8.647-20.639 13.993-33.854 13.993-0.096 0-0.192 0-0.288-0.001h-32.577c54.858 69.783 87.982 158.908 87.982 255.769 0 229.618-186.142 415.76-415.76 415.76s-415.76-186.142-415.76-415.76c0-229.618 186.142-415.76 415.76-415.76 96.861 0 185.986 33.123 256.666 88.661l-0.897-0.679v-32.464c0-0.081-0.001-0.177-0.001-0.273 0-13.216 5.346-25.182 13.994-33.855l199.39-199.39c8.657-8.711 20.645-14.103 33.893-14.103s25.236 5.392 33.891 14.1l56.611 56.611c8.774 8.732 14.204 20.817 14.204 34.171 0 13.184-5.292 25.131-13.869 33.834l0.006-0.006zM415.973 287.984c-141.361 0-255.957 114.596-255.957 255.957s114.596 255.957 255.957 255.957c141.361 0 255.957-114.596 255.957-255.957v0c-0.049-141.325-114.626-255.872-255.957-255.872v0z" />
<glyph unicode="&#xe921;" glyph-name="star-1" horiz-adv-x="1095" d="M264.124-64l-3.988 0.315c-45.874 4.728-81.349 43.172-81.349 89.9 0 9.949 1.608 19.523 4.579 28.476l-0.183-0.638 89.58 260.661-235.092 165.554c-19.618 13.599-33.145 34.797-36.332 59.244l-0.046 0.43c-0.823 4.244-1.294 9.125-1.294 14.115 0 0.018 0 0.036 0 0.054v-0.003c0.197 48.36 39.308 87.52 87.63 87.796h289.579l86.747 258.842c12.356 34.779 44.982 59.235 83.32 59.235 37.789 0 70.029-23.761 82.593-57.157l0.201-0.608 87.272-260.311h287.525c0.011 0 0.025 0 0.038 0 47.863 0 86.99-37.407 89.741-84.58l0.011-0.243v-3.848l-0.315-3.883c-2.124-22.565-12.304-42.418-27.594-56.944l-0.039-0.036-11.963-10.074-233.098-167.233 89.755-261.011c3.161-8.633 4.99-18.602 4.99-28.997 0-27.516-12.812-52.041-32.795-67.933l-0.177-0.136c-13.364-11.803-30.658-19.438-49.692-20.728l-0.258-0.014-3.183-0.21-3.148 0.175c-18.973 1.079-36.226 7.647-50.416 18.125l0.256-0.181-229.565 163.77-230.369-164.12c-13.682-9.851-30.475-16.214-48.672-17.473l-0.298-0.017zM812.414 19.949v-0.28zM282.243 20.124v0zM838.403 39.502v0zM139.39 536.968l258.003-181.889-97.94-285.006 247.929 176.642 247.649-176.502-97.94 284.586 254.015 182.169h-309.246l-94.442 282.243-94.722-282.243zM1004.972 536.968v0zM97.346 566.595l0.56-0.42z" />
<glyph unicode="&#xe922;" glyph-name="star" horiz-adv-x="1103" d="M1060.923 605.515h-362.082l-110.034 328.386c-5.769 15.366-20.337 26.102-37.413 26.102s-31.644-10.737-37.322-25.828l-0.091-0.275-110.034-328.386h-364.574c-21.717-0.069-39.304-17.656-39.374-39.367v-0.007c0-0.051-0.001-0.111-0.001-0.172 0-2.3 0.268-4.537 0.775-6.682l-0.039 0.196c1.082-11.588 7.245-21.545 16.211-27.732l0.127-0.083 297.753-209.856-114.363-332.062c-1.356-3.823-2.14-8.232-2.14-12.824 0-12.816 6.104-24.206 15.563-31.422l0.096-0.070c5.913-5.322 13.556-8.829 21.991-9.588l0.147-0.011c9.263 0.701 17.658 3.918 24.649 8.961l-0.142-0.098 290.483 207.038 290.483-207.038c6.807-5.047 15.229-8.284 24.374-8.857l0.132-0.007c8.688 0.56 16.438 4.176 22.272 9.773l-0.012-0.012c9.602 7.187 15.75 18.533 15.75 31.315 0 4.66-0.817 9.13-2.316 13.273l0.086-0.272-114.159 331.898 295.139 211.694 7.148 6.167c7.108 6.72 11.823 15.905 12.772 26.182l0.012 0.163c-1.204 22.063-19.388 39.497-41.643 39.497-0.078 0-0.156 0-0.234-0.001h0.012z" />
<glyph unicode="&#xe923;" glyph-name="thumbs-up" horiz-adv-x="910" d="M662.613 598.059c-7.552 20.181 201.344 206.72 79.531 357.888-28.501 35.328-125.227-169.259-262.528-261.845-75.776-51.2-252.075-159.872-252.075-219.989v-389.461c0-72.32 279.552-148.864 491.989-148.864 77.867 0 190.677 487.851 190.677 565.333s-240.128 76.459-247.467 96.725zM170.624 592.64c-0.681 0.010-1.486 0.016-2.292 0.016-93.126 0-168.619-75.493-168.619-168.619 0-3.187 0.088-6.354 0.263-9.498l-0.019 0.437v-275.797c-0.161-2.71-0.252-5.878-0.252-9.068 0-90.015 72.972-162.987 162.987-162.987 2.79 0 5.564 0.070 8.32 0.209l-0.387-0.016c37.376 0-56.875 32.555-56.875 128.555v362.667c0 100.565 94.251 134.187 56.875 134.187z" />
<glyph unicode="&#xe924;" glyph-name="time" d="M511.488 960c-282.55-0.292-511.488-229.41-511.488-512 0-282.77 229.23-512 512-512s512 229.23 512 512v0c0 0.076 0 0.166 0 0.257 0 282.628-229.116 511.744-511.744 511.744-0.27 0-0.54 0-0.81-0.001h0.042zM512 38.4c-226.216 0-409.6 183.384-409.6 409.6s183.384 409.6 409.6 409.6c226.216 0 409.6-183.384 409.6-409.6v0c0-226.216-183.384-409.6-409.6-409.6v0zM537.6 704h-76.8v-307.2l268.8-161.28 38.4 63.147-230.4 136.533z" />
<glyph unicode="&#xe925;" glyph-name="top" d="M563.115 736.768l407.851-408.107c13.137-12.992 21.272-31.018 21.272-50.943 0-19.756-7.997-37.645-20.932-50.605l-68.138-68.138c-12.998-13.055-30.985-21.133-50.859-21.133-19.725 0-37.592 7.958-50.564 20.838l-289.532 289.788-289.195-289.195c-12.998-13.055-30.985-21.133-50.859-21.133-19.725 0-37.592 7.958-50.564 20.838l0.004-0.004-0.213 0.299-68.267 67.499c-13.075 12.989-21.168 30.978-21.168 50.859 0 19.71 7.956 37.563 20.831 50.521l408.231 408.316c13.040 13.276 31.18 21.503 51.243 21.503 19.596 0 37.358-7.849 50.315-20.575l-0.011 0.010z" />
<glyph unicode="&#xe926;" glyph-name="trophy" horiz-adv-x="1152" d="M1104.017 831.982h-207.987v80.017c0 26.51-21.491 48.001-48.001 48.001v0h-544.040c-26.51 0-48.001-21.491-48.001-48.001v0-80.017h-207.987c-26.51 0-48.001-21.491-48.001-48.001v0-111.986c7.076-85.462 54.363-158.548 122.682-200.96l1.112-0.643c61.778-44.226 136.678-74.099 217.854-83.23l2.133-0.195c34.389-59.486 80.159-108.69 134.709-145.998l1.518-0.98v-144.002h-96.001c-3.854 0.457-8.318 0.718-12.843 0.718-62.746 0-113.776-50.163-115.172-112.574l-0.002-0.13v-24c0-13.255 10.745-24 24-24v0h592.041c13.255 0 24 10.745 24 24v0 24c-1.399 62.54-52.429 112.704-115.175 112.704-4.525 0-8.989-0.261-13.378-0.768l0.535 0.050h-96.001v144.002c56.068 38.356 101.826 87.64 135.041 145.086l1.137 2.132c83.314 9.166 158.252 38.973 221.451 84.147l-1.416-0.962c69.366 43.121 116.621 116.171 123.729 200.646l0.065 0.957v111.986c0 26.51-21.491 48.001-48.001 48.001v0zM198.627 574.41c-35.829 20.914-61.682 55.601-70.437 96.621l-0.172 0.964v32.016h128.402c1.638-61.997 10.873-121.145 26.808-177.479l-1.223 5.061c-31.815 11.002-59.407 25.499-84.329 43.47l0.951-0.653zM1024 671.995c-9.695-41.665-35.309-76.091-69.932-97.202l-0.677-0.383c-24.040-17.319-51.713-31.817-81.346-42.129l-2.271-0.688c14.711 51.273 23.946 110.421 25.564 171.467l0.020 0.952h128.594z" />
</font>
</defs>
</svg>
